foobar2000.pl - polskie forum: [1.3.7] lista utworów w jednym pliku - foobar2000.pl - polskie forum

Skocz do zawartości

Zasady działu Problemy i pytania

Zasady działu "Problemy i pytania"

  • Jeżeli Twoje pytanie dotyczy wtyczek (components) to pomyliłeś dział. Dyskusje na temat wtyczek prowadzimy tylko i wyłącznie w dziale Problemy i pytania związane z wtyczkami.
  • Pamiętaj, aby przed założeniem nowego tematu sprawdzić czy podobne pytanie wcześniej już nie padło! Skorzystaj w tym celu z WYSZUKIWARKI oraz zajrzyj do działu F.A.Q. - Najczęsciej zadawane pytania.
  • Jeżeli zastosowałeś się do poprzednich 2 reguł i dalej nie znasz rozwiązania problemu to możesz już śmiało zakładać nowy temat. Pamiętaj, że jesteś zobowiązany do podania posiadanej wersji foobara przed nazwą tematu, przykłady:

    [Wersja foobara] Nazwa tematu


    • (np.) [0.9.5.1] foobar ciągle zawiesza się przy starcie...
    • (np.) [0.9.4.2] Błędy przy odtwarzaniu formatu FLAC

Grupa Trzymająca Władzę
Strona 1 z 1
  • Nie możesz napisać tematu
  • Nie możesz odpowiedzieć

[1.3.7] lista utworów w jednym pliku

#1 Użytkownik nie jest zalogowany   3dh Ikona

  • foon00b
  • Ikona
  • Rejestracja 21-marzec 15

Ikona postu  Napisano 21 marzec 2015 - 17:39

Nie chodzi mi o podzielenie takiego pliku, tylko dodanie listy. Głównie dlatego, że niektóre utwory płynnie na siebie nachodzą, i kiedy podzieliłem m4a (użyłem ffmpeg), to w niektórych odtwarzaczach - oprócz foobar - słychać przerwę między utworami.

Można zrobić taką listę w jednym pliku?

---

Dobra, zrobiłem sobie plik cue:
PERFORMER "Vangelis"
TITLE "Blade Runner (Vinyl)"
FILE "Vangelis - Blade Runner (Vinyl, LP, Album).m4a" MP3
   TRACK 01 AUDIO
     TITLE "Main Titles"
     PERFORMER "Vangelis"
     INDEX 01 00:06:00
   TRACK 02 AUDIO
     TITLE "Blush Response"
     PERFORMER "Vangelis"
     INDEX 01 03:48:00
   TRACK 03 AUDIO
     TITLE "Wait ror Me"
     PERFORMER "Vangelis"
     INDEX 01 09:35:00
   TRACK 04 AUDIO
     TITLE "Rachels Song"
     PERFORMER "Vangelis"
     INDEX 01 15:02:00
   TRACK 05 AUDIO
     TITLE "Love Theme"
     PERFORMER "Vangelis"
     INDEX 01 19:48:00
   TRACK 06 AUDIO
     TITLE "One More Kiss Dear"
     PERFORMER "Vangelis"
     INDEX 01 24:44:00
   TRACK 07 AUDIO
     TITLE "Blade Runner Blues"
     PERFORMER "Vangelis"
     INDEX 01 29:50:00
   TRACK 08 AUDIO
     TITLE "Memories of Green"
     PERFORMER "Vangelis"
     INDEX 01 38:43:00
   TRACK 09 AUDIO
     TITLE "Tales of fhe Future"
     PERFORMER "Vangelis"
     INDEX 01 43:48:00
   TRACK 10 AUDIO
     TITLE "Damask Rose"
     PERFORMER "Vangelis"
     INDEX 01 48:43:00
   TRACK 11 AUDIO
     TITLE "Blade Runner (End Titles)"
     PERFORMER "Vangelis"
     INDEX 01 51:06:00
   TRACK 12 AUDIO
     TITLE "Tears in Rain"
     PERFORMER "Vangelis"
     INDEX 01 55:46:00

Jest lepiej, ale mam problem z utworami nr. 6 i 12. Pod koniec tych utworów jest długa przerwa, chciałbym to wyciąć albo ominąć.

Można to zrobić w pliku cue?

Dziękuję za pomoc.
0


Strona 1 z 1
  • Nie możesz napisać tematu
  • Nie możesz odpowiedzieć

Odpowiedzi do tego tematu

#2 Użytkownik nie jest zalogowany   Placio74 Ikona

  • 20% ekstraktu z foo
  • Ikona
  • Rejestracja 13-czerwiec 08

Napisano 21 marzec 2015 - 19:29

Nie - w arkuszu możesz tylko zdefiniować czas początku utworu.

---

Można podejść do tego nieco inaczej... wypróbuj filtr DSP Skip Silence.
0

#3 Użytkownik nie jest zalogowany   3dh Ikona

  • foon00b
  • Ikona
  • Rejestracja 21-marzec 15

Napisano 23 marzec 2015 - 18:40

Dzięki za informacje o filtrze. W międzyczasie wyciąłem pusty początek i koniec programem ffmpeg:
ffmpeg -i "Blade Runner Soundtrack [Full Vinyl Rip 2013].m4a" -acodec copy -t 00:58:53 -ss 00:00:27 "Vangelis - Blade Runner (Vinyl, LP, Album).m4a"

Przerwę po 6 utworze zostawiłem, już nie przeszkadza mi tak bardzo jak na początku.
0

Strona 1 z 1
  • Nie możesz napisać tematu
  • Nie możesz odpowiedzieć

Użytkownicy przeglądający ten temat: 2
0 użytkowników, 2 gości, 0 anonimowych


Oferujemy miejsce na reklame. Kontakt: m.szafranski@foobar2000.pl